#TITLE:I am maid;
#SUBTITLE:;
#ARTIST:Jea;
#TITLETRANSLIT:;
#SUBTITLETRANSLIT:;
#ARTISTTRANSLIT:;
#CREDIT:;
#BANNER:Iammaid-bn.png;
#BACKGROUND:iammaid-bg.png;
#LYRICSPATH:;
#CDTITLE:cdtitle.png;
#MUSIC:01 I am Maid.mp3;
#OFFSET:0.000;
#SAMPLESTART:50.809;
#SAMPLELENGTH:11.940;
#SELECTABLE:YES;
#BPMS:0.000=202.280,415.000=190.660,415.500=170.000,416.500=162.060,417.000=160.420;
#STOPS:4.000=0.890
,5.000=0.890
,6.000=0.297
,7.000=0.297
,44.000=0.890
,45.000=0.890
,46.000=0.297
,47.000=0.297
,188.000=0.890
,249.000=0.890
,338.000=0.148
,338.500=0.148
,339.000=0.148
,339.500=0.148
,341.000=0.148
,341.500=0.148
,351.000=0.148
,352.500=0.148
,353.000=0.148
,353.500=0.148
,354.000=0.148
,355.500=0.148
;
#BGCHANGES:;
// cache tags:
#FIRSTBEAT:4.000;
#LASTBEAT:417.750;
#SONGFILENAME:Songs/Music V.I.P ^_^/I Am Maid- Bursurk Lurk/I am maid.sm;
#HASMUSIC:1;
#HASBANNER:1;
#MUSICLENGTH:132.493;
// end cache tags

//---------------dance-single - ----------------
#NOTES:
     dance-single:
     :
     Hard:
     11:
     1.000,1.000,1.000,0.015,0.257,822.000,390.000,2.000,0.000,0.000:
0000
0000
0000
0000
,
1001
0110
0011
1100
,
0011
0000
0000
0000
1100
0000
0000
0000
0100
0010
0001
1000
0100
0000
0100
0000
,
1001
0010
0101
1000
0011
0100
1010
0001
,
1100
0010
0101
0010
1100
0010
0101
1010
,
0110
1000
0011
0100
0011
1000
0110
1000
,
0011
0000
0100
0000
1001
0000
0010
0000
0100
0010
0100
0001
0100
0000
0100
0000
,
0011
1000
0110
0001
1100
0001
1010
0001
,
0110
1000
0110
0001
1010
0100
1001
0101
,
0011
1000
0101
0010
1100
0001
1010
0001
,
0110
0000
1000
0000
0101
0000
0011
0000
0000
0000
1000
0010
1000
0000
0010
0000
,
1001
0110
1001
0110
,
1001
0000
0000
0000
0011
0000
0110
0000
1000
0100
0010
0001
1000
0010
0100
0001
,
0010
0001
1100
0010
0101
1000
0110
1000
,
0011
0100
1010
0100
1001
0010
1100
0001
,
1010
1100
0110
0101
1100
0110
1010
0011
,
0110
0000
0000
0000
1100
0000
0000
0000
1001
0000
0100
0010
1000
0000
0001
0000
,
0110
0001
1100
0010
1100
0001
0110
1000
,
0011
0000
1000
0000
0110
0000
0001
0000
1000
0100
0010
0000
1001
0000
0110
0000
,
1000
0000
0010
0000
0100
0000
0001
0000
1000
0010
0100
0000
1000
0000
0001
0000
,
0110
0000
1000
0000
0101
0000
1000
0000
0100
0010
0001
0000
1010
0000
0100
0000
,
0011
1000
0110
0001
1100
0011
0101
0110
,
1100
0000
0001
0000
0110
0000
1100
0000
0110
0000
0101
0000
0110
0000
0100
0001
,
0100
0010
1100
0010
0101
1000
0110
0001
,
1100
0110
0101
1100
0110
0011
1100
0110
,
0101
0110
0011
0101
1100
0110
0101
1100
,
1010
0000
0001
0000
0110
0000
1000
0000
0110
0000
0110
0000
1000
0100
0010
0100
,
0010
0000
1100
0010
1100
0001
1010
0001
,
1100
0000
0001
0000
1010
0000
0100
0000
0010
0100
0010
0000
0110
0000
0110
0000
,
1010
0000
0001
0000
0100
0000
0010
0000
1000
0010
0100
0000
0010
0000
0100
0000
,
0001
0000
1100
0000
0010
0000
0101
0000
0010
1000
0001
0000
1001
0000
0101
0000
,
1001
0000
0110
0001
0110
1100
0101
0011
,
0110
0000
1000
0000
0110
0000
0110
0000
0001
0000
0010
0100
1000
0100
0010
0000
,
0110
0011
1100
0110
1010
0100
0011
0110
,
1100
0000
0010
0000
0101
0000
1100
0000
0110
0000
0001
1000
0001
0000
0110
0000
,
1100
1001
0110
0101
0110
1100
1010
0011
,
0000
1010
0110
0000
0101
1010
0110
1001
,
0110
0000
0001
0000
1100
0000
0010
0000
0100
0001
0010
0000
1100
0000
0001
0000
,
0110
0000
1000
0000
0011
0000
0100
0000
1000
0001
1000
0000
1001
0000
1001
0000
,
0110
1000
0011
0100
1010
0001
0110
1000
,
0101
0000
0110
0000
1000
0000
0101
0000
0010
0000
1000
0010
0100
0000
0011
0000
,
1100
0010
0100
0011
1010
0001
0110
1010
,
0101
0000
0010
0000
1100
0000
0001
0000
0010
0100
1000
0000
1001
0000
1010
0000
,
1100
0110
1100
0101
1100
0011
0100
1000
,
0110
0000
0001
0000
1010
0000
0011
0000
1000
0000
0010
0100
1000
0000
0110
0000
,
0110
0001
1100
0010
0101
1010
0011
0110
,
1001
0000
0001
0000
0010
0000
0010
0000
0100
0010
0100
0000
1001
0000
1001
0000
,
1001
0000
0110
0100
0100
0100
0100
1000
,
0100
0000
0010
0000
0101
0000
0100
0000
0100
0000
0100
0000
0001
0010
0100
1000
,
0100
0110
1001
0010
1100
0010
0101
1000
,
0110
0000
0001
0000
1100
0000
0010
0000
0101
0000
0010
0000
1000
0010
0100
0001
,
0010
0110
1001
0010
0100
0010
1000
0100
,
0001
0000
0010
0000
1001
0000
0010
0000
1001
0000
0000
0000
1000
0010
1000
0001
,
1000
0011
1100
0010
0001
0100
1000
0001
,
0100
1000
0110
0001
0010
0000
1000
0000
,
0010
0101
1000
0100
,
1000
0110
1000
0010
,
1000
0110
1000
0110
,
0001
1100
0001
0110
,
1000
0110
1001
0011
,
1100
0000
0110
0110
1001
1001
0011
0011
,
1100
0000
1100
0000
0001
0010
0100
1000
0001
0100
0010
1000
0100
0010
0100
0010
,
0001
0100
0010
1000
0110
0000
0001
0000
0110
0000
1000
0000
1000
0000
1000
0000
,
1000
0100
0010
0001
0011
0001
0001
0001
,
0001
0100
0010
0100
0011
0010
0010
0010
,
1010
1000
1000
1000
1100
0100
0110
0100
,
1000
0001
0010
0001
1000
0000
0110
0000
0110
0000
0100
0000
0110
0000
0010
0000
,
1010
1000
1100
0100
0101
0001
0011
0010
,
0110
0100
0101
0011
0101
0100
1100
1000
,
1010
0010
0110
0100
1100
1000
1010
0010
,
1000
0100
0010
0001
0010
0000
1001
0000
0110
0000
0000
0000
1100
0000
0000
0000
,
0101
0110
1100
0101
,
0110
0000
1001
0110
0101
0000
1010
0000
,
0101
0000
0110
0000
1001
0000
0110
0110
,
0000
0000
1000
0001
1000
0000
0010
0000
1001
0000
1000
0000
0010
0000
1000
0000
,
1100
0000
0000
0001
0000
0001
0010
0001
,
0011
0000
0000
0000
1100
0100
0100
0100
,
0101
0000
0001
0000
0001
0000
0001
0000
0001
1000
0001
0100
0001
0010
0100
1000
,
0100
1000
0010
1000
0001
1000
0010
1000
0110
0000
0011
0000
1100
0000
0010
0000
,
0100
0011
1000
0101
0110
1100
0011
1000
,
0010
0101
1000
0010
0110
1100
1010
0110
,
0101
0011
1001
0110
1001
0110
1001
0010
,
1100
0000
0100
0010
0100
0000
0110
0000
0110
0000
0001
0000
1100
0000
0010
0000
,
0101
0010
1100
0001
0110
1000
0101
0010
,
1100
0000
0000
0100
1100
0110
0011
1100
,
0011
0000
0110
0000
1100
0000
0011
0000
1100
0000
0010
0100
0010
0000
0001
0000
,
0110
0011
1000
0011
0110
1010
0101
0110
,
1100
0000
0001
0000
0100
0010
0100
0000
0011
0000
0110
0000
1100
0000
0110
0000
,
0110
1001
0110
0110
1010
0011
0101
1100
,
0110
0011
0100
1010
0110
0011
1100
0110
,
1100
0000
0101
0000
1100
0000
0110
0000
0011
0000
0101
0000
1100
0000
0100
0010
,
0001
0000
0100
0000
0010
0000
1000
0000
0100
0001
0010
0000
0100
0000
0001
0000
,
1000
0010
1000
0000
0100
0010
0100
0000
0010
0001
0010
0000
1000
0100
0010
0000
,
1001
0010
1100
0001
0110
1000
0101
0010
,
1100
0000
0110
0000
0001
0000
0110
0000
0001
0000
1000
0100
1000
0000
0110
0000
,
1001
0010
1100
0011
0100
1000
0101
1010
,
0101
0000
0010
0000
0101
0000
1000
0000
0100
0010
1000
0000
0101
0000
0110
0000
,
1010
0011
0110
1010
0011
0110
1000
0001
,
0110
0000
1000
0000
0101
0000
0110
0000
1000
0000
0100
0010
0100
0000
1010
0000
,
0101
0010
1100
0010
0101
1010
0110
0101
,
1001
0000
0001
0000
0010
0000
0010
0000
0100
0010
0100
0000
0011
0000
0101
0000
,
1001
0000
0000
0000
,
1100
1000
1000
1000
1000
1000
0100
0010
,
0101
0100
0100
0100
0100
0010
1000
0100
,
2002
0000
0000
0000
0000
0000
0000
3003
0000
0000
0000
0000
0000
0000
0000
0000
;

//---------------dance-single - Copied from----------------
#NOTES:
     dance-single:
     Copied from:
     Challenge:
     15:
     1.000,1.000,1.000,0.015,0.887,1008.000,535.000,2.000,0.000,3.000:
0000
0000
0000
0000
,
1001
0110
0011
1100
,
0011
0000
0000
0000
1100
0000
0000
0000
1100
0011
1100
0011
1100
0000
0010
0000
,
1001
0010
0101
1000
0011
0100
1010
0001
,
1100
0010
0101
0010
1100
0010
0101
1010
,
0110
1000
0011
0100
0011
1000
0110
1000
,
0011
0000
0100
0000
1001
0000
0010
0000
0101
1010
0101
1010
0101
0000
0100
0000
,
0011
1000
0110
0001
1100
0001
1010
0001
,
0110
1000
0110
0001
1010
0100
1001
0101
,
0011
1000
0101
0010
1100
0001
1010
0001
,
0110
0000
1000
0000
0101
0000
0011
0000
0000
0000
1000
1000
1000
0000
0010
0000
,
1001
0110
1001
0110
,
1001
0000
0000
0000
0011
0000
0110
0000
1001
0110
1001
0110
1001
0110
1001
0110
,
1001
0100
0001
0010
1100
0001
0010
1000
0101
0010
1000
0001
0110
0001
1000
0100
,
0011
1000
0100
0001
1010
0001
0100
0010
1001
0100
0010
0001
1100
0010
0001
0100
,
1010
0001
1100
0001
0110
1000
0101
0010
1100
0001
0110
0001
1010
0100
0011
1000
,
0110
1000
0100
0010
1100
0001
0010
0100
1001
0100
1001
0110
1001
0010
0001
1000
,
0110
1000
0001
0010
1100
0001
0010
0001
1100
0010
0001
1000
0110
0001
1000
0100
,
0011
0100
1000
0001
0110
1000
0001
0010
1001
0110
1001
0100
1001
0010
1100
0001
,
1000
0000
0010
0000
0100
0000
0001
0000
1000
0010
0100
0000
1000
0000
0001
0000
,
0110
0000
1000
0000
0101
0000
1000
0000
0101
0010
0001
0000
1010
0000
0100
0000
,
0011
0000
1000
0000
0110
0000
0001
0000
1100
0010
0101
0000
0101
0000
0110
0000
,
1100
0000
0001
0000
0110
0000
1100
0000
0110
1000
0101
0000
0110
0000
0110
1001
,
0110
0000
0010
0000
1100
0000
0010
0000
0101
0010
1000
0000
0110
0000
0001
0000
,
1100
0000
0110
0000
0101
0000
1100
0000
0110
1000
0011
0000
1100
0000
0110
0000
,
0101
0000
0110
0000
0011
0000
0101
0000
1100
0001
0110
0000
0101
0000
1100
0000
,
1010
0000
0001
0000
0110
0000
1000
0000
0110
0001
0110
0000
1100
0011
1100
0011
,
1100
0000
0010
0000
1100
0000
0010
0000
1100
0010
0001
0000
1010
0000
0001
0000
,
1100
0000
0001
0000
1010
0000
0100
0000
1010
0101
1010
0000
0110
0000
0110
0000
,
1010
0000
0001
0000
0100
0000
0010
0000
1000
0010
0100
0000
0010
0000
0100
0000
,
0001
0000
1100
0000
0010
0000
0101
0000
0110
1001
0110
0000
1001
0000
0101
0000
,
1001
0000
0000
0000
0110
0000
0001
0000
0110
0001
1100
0000
0101
0000
0011
0000
,
0110
0000
1000
0000
0110
0000
0110
0000
0001
0100
0010
0101
1010
0101
1010
0000
,
0110
0000
0011
0000
1100
0000
0110
0000
1010
0001
0100
0000
0011
0000
0110
0000
,
1100
0000
0010
0000
0101
0000
1100
0000
0110
1000
0011
1100
0011
0000
0110
0000
,
1100
0000
1001
0000
0110
0000
0101
0000
0110
0001
1100
0000
1010
0000
0011
0000
,
0100
1010
0110
1000
0101
1010
0110
1001
,
0110
1000
0001
0000
1100
0000
0010
0000
0100
0001
0010
0000
1100
0000
0001
0000
,
0110
0001
1000
0000
0011
1000
0100
0000
1010
0101
1010
0000
1001
0010
1001
0010
,
1100
0000
1000
0000
0011
0000
0100
0000
1010
0100
0001
0000
0110
0000
1000
0000
,
0101
0000
0110
0000
1000
0000
0101
0000
0010
0100
1000
0011
0110
0000
0011
0000
,
1100
0000
0010
0000
0100
0000
0011
0000
1010
0100
0001
0000
0110
0000
1010
0000
,
0101
0000
0010
0000
1100
0000
0001
0000
0110
1001
0110
0000
1001
0000
1010
0000
,
1100
0000
0110
0000
1100
0000
0101
0000
1100
0010
0101
0000
0100
0000
1000
0000
,
0110
0000
0001
0000
1010
0000
0011
0000
0100
0010
0001
0110
1010
0000
0110
0000
,
0110
0000
0001
0000
1100
0000
0010
0000
0101
1000
0110
0000
0011
0000
0110
0000
,
1001
0000
0001
0000
0010
0000
0010
0000
0110
1001
0110
0000
1001
0000
1001
0000
,
1001
0000
0110
0100
0100
0100
0100
1000
,
0100
0000
0010
0000
0101
0000
0100
0000
0100
0000
0100
0000
1001
0110
1001
0110
,
1001
0000
0110
0000
1001
0000
0010
0000
1100
0000
0010
0000
0101
0010
1000
0000
,
0110
0000
0001
0000
1100
0000
0010
0000
0101
0000
0010
0000
1100
0011
1100
0011
,
1100
0110
1001
0010
0100
0010
1000
0100
,
0001
0000
0010
0000
1001
0000
0010
0000
1001
0000
0000
0000
1010
0101
1010
0101
,
1010
0011
1100
0010
0001
0100
1000
0001
,
0100
1000
0110
0001
0010
0000
1000
0000
,
0010
0101
1000
0100
,
1000
0110
1000
0010
,
1000
0110
1000
0110
,
0001
1100
0001
0110
,
1000
0110
1001
0011
,
1100
0000
0110
0110
1001
1001
0011
0011
,
1100
0000
1100
0000
0101
1010
0101
1010
0011
1100
0011
1100
1001
0110
1001
0110
,
1010
0101
1010
0101
1001
0000
0001
0000
0110
0001
1000
0100
1000
0010
1000
0100
,
1000
0010
0100
0001
0010
1000
0001
0100
0011
1000
0001
0010
0001
0100
0001
1000
,
0001
0010
0100
0001
0010
1000
0100
1000
0011
0100
0010
1000
0010
0100
0010
0001
,
1010
0100
1000
0010
1000
0100
1000
0010
1100
0010
0100
0001
0110
1000
0100
0010
,
1100
0011
1100
0011
1100
0000
0110
0000
0110
0000
0100
0000
0110
0000
0010
0000
,
1010
0100
1000
0000
1100
0000
0100
0000
0101
0000
0001
0000
0011
0000
0010
0000
,
0110
1000
0100
0000
0101
0000
0011
0000
0101
0000
0100
0000
1100
0000
1000
0000
,
1010
0100
0010
0000
0110
0000
0100
0000
1100
0000
1000
0000
1010
0000
0010
0000
,
1001
0110
1001
0110
1001
0000
1001
0000
0110
0001
0010
0001
1100
0010
1000
0010
,
0101
1000
0010
1000
0110
0001
0100
0010
1100
0010
1000
0010
0101
1000
0100
0001
,
0110
1000
0010
0100
1001
0010
0101
1000
0101
1000
0010
0100
1010
0001
0100
0010
,
0101
1000
0010
1000
0110
0001
0100
0010
1001
0100
0010
0001
0110
1000
0110
0001
,
1000
0010
1100
0011
1100
0001
0010
0100
1001
0000
1000
0000
0010
0000
1000
0000
,
1100
0000
0000
0001
0000
0001
0010
0001
,
0011
0000
0000
0000
1100
0100
0100
0100
,
0101
0000
0001
0000
0001
0000
0001
0000
0011
1100
0011
1100
0101
1010
0101
1010
,
1100
1100
0110
0110
0011
0011
0110
0110
1001
0000
0011
0000
1100
0000
0010
0000
,
0100
1000
0011
0000
1000
0000
0101
0000
0110
0000
1100
0000
0011
0000
1000
0000
,
0010
1000
0101
0000
1000
0000
0010
0000
0110
0000
1100
0000
1010
0000
0110
0000
,
0101
1000
0011
0000
1001
0000
0110
0000
1001
0000
0110
0000
1001
0000
0010
0000
,
1100
0001
1100
0011
1100
0000
0110
0000
0110
0000
0001
0000
1100
0000
0010
0000
,
0101
1000
0010
0000
1100
0000
0001
0000
0110
0000
1000
0000
0101
0000
0010
0000
,
1100
0000
0000
0100
1100
0110
0011
1100
,
0011
0000
0110
0000
1100
0000
0011
0000
1100
0000
1010
0101
1010
0000
0001
0000
,
0110
1000
0011
0100
1000
0100
0011
1000
0110
0001
1100
0010
0101
1000
0110
0001
,
1100
0010
0001
0010
1100
0011
1100
0010
0101
1000
0110
0001
1100
0000
0110
0000
,
0110
1001
0110
0110
1010
0011
0101
1100
,
0110
0011
0100
1010
0110
0011
1100
0110
,
1100
0000
0101
0000
1100
0000
0110
0000
0011
0000
0101
0000
1100
0000
0110
1001
,
0110
0000
0100
0000
0010
0000
1000
0000
0100
0001
0010
0000
0100
0000
0001
0000
,
1000
0010
1000
0000
0100
0010
0100
0000
0011
1100
0011
0000
1000
0100
0010
0000
,
1001
0000
0010
0000
1100
0000
0001
0000
0110
0001
1000
0000
0101
0000
0010
0000
,
1100
0000
0110
0000
0001
0000
0110
0000
0001
0010
1000
0101
1010
0000
0110
0000
,
1001
0000
0010
0000
1100
0000
0011
0000
0100
0010
1000
0000
0101
0000
1010
0000
,
0101
0000
0010
0000
0101
0000
1000
0000
1001
0110
1001
0000
0101
0000
0110
0000
,
1010
0000
0011
0000
0110
0000
1010
0000
0011
1000
0110
0000
1000
0000
0001
0000
,
0110
0000
1000
0000
0101
0000
0110
0000
1000
0010
0100
1010
0101
0000
1010
0000
,
0101
0000
0010
0000
1100
0000
0010
0000
0101
0010
1100
0000
0110
0000
0101
0000
,
1001
0000
0001
0000
0010
0000
0010
0000
0110
1001
0110
0000
0011
0000
0101
0000
,
1001
0000
0000
0000
,
1100
1000
1000
1000
1000
1000
0100
0010
,
0101
0000
0000
0000
0000
0000
0100
0000
1000
0000
0010
0000
0100
0000
1000
0000
0010
0000
0100
0000
0001
0000
1000
0000
0100
0000
0001
0000
1000
0000
0010
0000
0000
0000
1000
0000
0000
0000
0000
0100
0000
0000
0000
0000
0010
0000
0000
0000
,
2002
0000
0010
0000
0100
0000
0010
3003
0000
0000
0000
0000
0000
0000
0000
0000
;
